Sub Rosa (2014) 480p HDRip English Hot Short Film x264 AAC 135mb ...

  • Category Movies
  • Type h.264/x264
  • Language English
  • Total size 134.6 MB
  • Uploaded By StathamIN
  • Downloads 495
  • Last checked 1 month ago
  • Date uploaded 1 month ago
  • Seeders 3
  • Leechers 1

Sub Rosa

Bullied by his father to grow up, a teen fights between the love of his step-mother over his father's life.

Infohash : 398C6AF593E5C35AEF1F819A2404595B82028B8C



https://FreshMoviesHD.com



Sub Rosa (2014) 480p HDRip English Hot Short Film x264 AAC 135mb — FreshMoviesHD





..:: MEDIA INFO ::..


Format                         : Matroska
Format version                 : Version 4 / Version 2
File size                      : 135 MiB
Duration                       : 21 min 50 s
Overall bit rate               : 862 kb/s
Encoded date                   : UTC 2021-01-21 05:21:22
Writing application            : mkvmerge v42.0.0 ('Overtime') 64-bit
Writing library                : libebml v1.3.10 + libmatroska v1.5.2

Video
ID                             : 1
Format                         : AVC
Format/Info                    : Advanced Video Codec
Format profile                 : [email protected]
Format settings, CABAC         : Yes
Format settings, RefFrames     : 4 frames
Format settings, GOP           : M=4, N=25
Codec ID                       : V_MPEG4/ISO/AVC
Duration                       : 21 min 49 s
Bit rate                       : 715 kb/s
Width                          : 768 pixels
Height                         : 432 pixels
Display aspect ratio           : 16:9
Frame rate mode                : Constant
Frame rate                     : 25.000 FPS
Color space                    : YUV
Chroma subsampling             : 4:2:0
Bit depth                      : 8 bits
Scan type                      : Progressive
Bits/(Pixel*Frame)             : 0.086
Stream size                    : 109 MiB (81%)
Writing library                : x264 core 148
Encoding settings              : cabac=1 / ref=2 / deblock=1:0:0 / analyse=0x3:0x113 / me=hex / subme=6 / psy=1 / psy_rd=1.00:0.00 / mixed_ref=1 / me_range=16 / chroma_me=1 / trellis=1 / 8x8dct=1 / cqm=0 / deadzone=21,11 / fast_pskip=1 / chroma_qp_offset=-2 / threads=6 / lookahead_threads=1 / sliced_threads=0 / nr=0 / decimate=1 / interlaced=0 / bluray_compat=0 / constrained_intra=0 / bframes=3 / b_pyramid=2 / b_adapt=1 / b_bias=0 / direct=1 / weightb=1 / open_gop=0 / weightp=1 / keyint=250 / keyint_min=25 / scenecut=40 / intra_refresh=0 / rc_lookahead=30 / rc=abr / mbtree=1 / bitrate=715 / ratetol=1.0 / qcomp=0.60 / qpmin=0 / qpmax=69 / qpstep=4 / ip_ratio=1.40 / aq=1:1.00
Language                       : English
Default                        : Yes
Forced                         : No

Audio
ID                             : 2
Format                         : AAC
Format/Info                    : Advanced Audio Codec
Format profile                 : LC
Codec ID                       : A_AAC
Duration                       : 21 min 50 s
Bit rate                       : 160 kb/s
Channel(s)                     : 2 channels
Channel positions              : Front: L R
Sampling rate                  : 22.05 kHz
Frame rate                     : 21.533 FPS (1024 SPF)
Compression mode               : Lossy
Delay relative to video        : -80 ms
Stream size                    : 25.0 MiB (19%)
Language                       : English
Default                        : Yes
Forced                         : No



..:: SCREENSHOTS ::..







Files:

Sub Rosa (2014) 480p HDRip English Hot Short Film x264 AAC 150mb — FreshMoviesHD
  • FreshMoviesHD - Latest Movies & Series in HD.txt (0.2 KB)
  • Sub Rosa (2014) 480p HDRip English Hot Short Film x264 AAC 135mb — FreshMoviesHD.mkv (134.6 MB)

There are currently no comments. Feel free to leave one :)

Code:

  • udp://tracker.coppersurfer.tk:6969/announce
  • udp://tracker.leechers-paradise.org:6969/announce
  • udp://tracker.opentrackr.org:1337/announce
  • udp://zer0day.to:1337/announce
  • udp://p4p.arenabg.ch:1337/announce
  • udp://tracker.tiny-vps.com:6969/announce
  • udp://open.stealth.si:80/announce
  • udp://tracker.zerobytes.xyz:1337/announce
  • udp://tracker.ds.is:6969/announce
  • udp://open.demonii.si:1337/announce
  • udp://retracker.lanta-net.ru:2710/announce