The.Astronauts.S01.WEBRip.x264-ION10

  • Category TV
  • Type SD
  • Language English
  • Total size 2.2 GB
  • Uploaded By prudence25
  • Downloads 85
  • Last checked 1 month ago
  • Date uploaded 1 month ago
  • Seeders 16
  • Leechers 3

Infohash : ABE1E7FAF6380A41052E9E281797E7161E4504D5







https://www.imdb.com/title/tt11947264/







Code:

Video
ID : 1
Format : AVC
Format/Info : Advanced Video Codec
Format profile : [email protected]
Format settings : CABAC / 5 Ref Frames
Format settings, CABAC : Yes
Format settings, Reference frames : 5 frames
Codec ID : avc1
Codec ID/Info : Advanced Video Coding
Duration : 47 min 11 s
Bit rate : 1 100 kb/s
Width : 720 pixels
Height : 400 pixels
Display aspect ratio : 16:9
Frame rate mode : Constant
Frame rate : 23.976 (24000/1001) FPS
Color space : YUV
Chroma subsampling : 4:2:0
Bit depth : 8 bits
Scan type : Progressive
Bits/(Pixel*Frame) : 0.159
Stream size : 369 MiB (81%)
Title : RARBG - The.Astronauts.S01E01.WEBRip.x264-ION10
Writing library : x264 core 152 r2851M ba24899
Encoding settings : cabac=1 / ref=5 / deblock=1:-1:-1 / analyse=0x3:0x113 / me=umh / subme=9 / psy=1 / psy_rd=1.00:0.15 / mixed_ref=1 / me_range=16 / chroma_me=1 / trellis=2 / 8x8dct=1 / cqm=0 / deadzone=21,11 / fast_pskip=1 / chroma_qp_offset=-3 / threads=12 / lookahead_threads=1 / sliced_threads=0 / nr=0 / decimate=1 / interlaced=0 / bluray_compat=0 / constrained_intra=0 / bframes=3 / b_pyramid=2 / b_adapt=2 / b_bias=0 / direct=3 / weightb=1 / open_gop=0 / weightp=2 / keyint=250 / keyint_min=23 / scenecut=40 / intra_refresh=0 / rc_lookahead=50 / rc=abr / mbtree=1 / bitrate=1100 / ratetol=1.0 / qcomp=0.60 / qpmin=0 / qpmax=69 / qpstep=4 / ip_ratio=1.40 / aq=1:1.00
Encoded date : UTC 2020-11-15 09:51:10
Tagged date : UTC 2020-11-15 09:51:10
Codec configuration box : avcC

Audio
ID : 2
Format : AAC LC
Format/Info : Advanced Audio Codec Low Complexity
Codec ID : mp4a-40-2
Duration : 47 min 11 s
Bit rate mode : Constant
Bit rate : 256 kb/s
Channel(s) : 2 channels
Channel layout : L R
Sampling rate : 48.0 kHz
Frame rate : 46.875 FPS (1024 SPF)
Compression mode : Lossy
Stream size : 86.4 MiB (19%)
Title : RARBG - The.Astronauts.S01E01.WEBRip.x264-ION10
Language : English
Default : Yes
Alternate group : 1
Encoded date : UTC 2020-11-15 09:51:10
Tagged date : UTC 2020-11-15 09:51:10










Files:

The.Astronauts.S01.WEBRip.x264-ION10
  • RARBG.txt (0.0 KB)
  • Subs
    • The.Astronauts.S01E01E02.WEBRip.x264-ION10.srt (79.4 KB)
    • The.Astronauts.S01E03.WEBRip.x264-ION10.srt (38.4 KB)
    • The.Astronauts.S01E04.WEBRip.x264-ION10.srt (31.5 KB)
    • The.Astronauts.S01E05.WEBRip.x264-ION10.srt (29.3 KB)
    • The.Astronauts.S01E06.WEBRip.x264-ION10.srt (31.3 KB)
    • The.Astronauts.S01E07.WEBRip.x264-ION10.srt (32.5 KB)
    • The.Astronauts.S01E08.WEBRip.x264-ION10.srt (42.7 KB)
    • The.Astronauts.S01E09.WEBRip.x264-ION10.srt (35.5 KB)
    • The.Astronauts.S01E10.WEBRip.x264-ION10.srt (41.5 KB)
  • The.Astronauts.S01E01E02.WEBRip.x264-ION10.mp4 (457.2 MB)
  • The.Astronauts.S01E03.WEBRip.x264-ION10.mp4 (215.4 MB)
  • The.Astronauts.S01E04.WEBRip.x264-ION10.mp4 (211.7 MB)
  • The.Astronauts.S01E05.WEBRip.x264-ION10.mp4 (222.3 MB)
  • The.Astronauts.S01E06.WEBRip.x264-ION10.mp4 (221.3 MB)
  • The.Astronauts.S01E07.WEBRip.x264-ION10.mp4 (217.5 MB)
  • The.Astronauts.S01E08.WEBRip.x264-ION10.mp4 (240.0 MB)
  • The.Astronauts.S01E09.WEBRip.x264-ION10.mp4 (234.4 MB)
  • The.Astronauts.S01E10.WEBRip.x264-ION10.mp4 (232.9 MB)

There are currently no comments. Feel free to leave one :)

Code:

  • http://tracker.trackerfix.com:80/announce
  • udp://9.rarbg.me:2730/announce
  • udp://9.rarbg.to:2820/announce