Inside.Pixar.S01.2160p.DSNP.WEBRip.x265.10bit.HDR.DDP5.1-KOGi

  • Category TV
  • Type HD
  • Language English
  • Total size 6.0 GB
  • Uploaded By prudence25
  • Downloads 120
  • Last checked 1 month ago
  • Date uploaded 1 month ago
  • Seeders 23
  • Leechers 1

Infohash : D322EDC504943EC820B765600378F5D7FE3C9987






https://www.imdb.com/title/tt13302848/






Code:

Video
ID : 1
Format : HEVC
Format/Info : High Efficiency Video Coding
Format profile : Main [email protected]@High
HDR format : SMPTE ST 2086, HDR10 compatible
Codec ID : V_MPEGH/ISO/HEVC
Duration : 12 min 50 s
Bit rate : 16.1 Mb/s
Width : 3 840 pixels
Height : 2 160 pixels
Display aspect ratio : 16:9
Frame rate mode : Constant
Frame rate : 23.976 (24000/1001) FPS
Color space : YUV
Chroma subsampling : 4:2:0
Bit depth : 10 bits
Bits/(Pixel*Frame) : 0.081
Stream size : 1.44 GiB (98%)
Language : English
Default : Yes
Forced : No
Color range : Limited
Color primaries : BT.2020
Transfer characteristics : PQ
Matrix coefficients : BT.2020 non-constant
Mastering display color primaries : BT.2020
Mastering display luminance : min: 0.0000 cd/m2, max: 1000 cd/m2

Audio
ID : 2
Format : E-AC-3
Format/Info : Enhanced AC-3
Commercial name : Dolby Digital Plus
Codec ID : A_EAC3
Duration : 12 min 50 s
Bit rate mode : Constant
Bit rate : 256 kb/s
Channel(s) : 6 channels
Channel layout : L R C LFE Ls Rs
Sampling rate : 48.0 kHz
Frame rate : 31.250 FPS (1536 SPF)
Compression mode : Lossy
Stream size : 23.5 MiB (2%)
Language : English
Service kind : Complete Main
Default : Yes
Forced : No

Text #1
ID : 3
Format : UTF-8
Codec ID : S_TEXT/UTF8
Codec ID/Info : UTF-8 Plain Text
Duration : 12 min 25 s
Bit rate : 127 b/s
Count of elements : 217
Stream size : 11.6 KiB (0%)
Title : English (SDH)
Language : English
Default : No
Forced : No

Text #2
ID : 4
Format : UTF-8
Codec ID : S_TEXT/UTF8
Codec ID/Info : UTF-8 Plain Text
Duration : 12 min 40 s
Bit rate : 105 b/s
Count of elements : 181
Stream size : 9.78 KiB (0%)
Title : Dansk
Language : Danish
Default : No
Forced : No

Text #3
ID : 5
Format : UTF-8
Codec ID : S_TEXT/UTF8
Codec ID/Info : UTF-8 Plain Text
Duration : 12 min 40 s
Bit rate : 101 b/s
Count of elements : 223
Stream size : 9.39 KiB (0%)
Title : Deutsch
Language : German
Default : No
Forced : No

Text #4
ID : 6
Format : UTF-8
Codec ID : S_TEXT/UTF8
Codec ID/Info : UTF-8 Plain Text
Duration : 12 min 48 s
Bit rate : 104 b/s
Count of elements : 237
Stream size : 9.82 KiB (0%)
Title : Español (Latinoamericano)
Language : Spanish
Default : No
Forced : No

Text #5
ID : 7
Format : UTF-8
Codec ID : S_TEXT/UTF8
Codec ID/Info : UTF-8 Plain Text
Duration : 12 min 48 s
Bit rate : 105 b/s
Count of elements : 232
Stream size : 9.87 KiB (0%)
Title : Español
Language : Spanish
Default : No
Forced : No

Text #6
ID : 8
Format : UTF-8
Codec ID : S_TEXT/UTF8
Codec ID/Info : UTF-8 Plain Text
Duration : 12 min 44 s
Bit rate : 94 b/s
Count of elements : 236
Stream size : 8.81 KiB (0%)
Title : Suomi
Language : Finnish
Default : No
Forced : No

Text #7
ID : 9
Format : UTF-8
Codec ID : S_TEXT/UTF8
Codec ID/Info : UTF-8 Plain Text
Duration : 12 min 48 s
Bit rate : 111 b/s
Count of elements : 205
Stream size : 10.4 KiB (0%)
Title : Français
Language : French
Default : No
Forced : No

Text #8
ID : 10
Format : UTF-8
Codec ID : S_TEXT/UTF8
Codec ID/Info : UTF-8 Plain Text
Duration : 12 min 48 s
Bit rate : 113 b/s
Count of elements : 236
Stream size : 10.7 KiB (0%)
Title : Italiano
Language : Italian
Default : No
Forced : No

Text #9
ID : 11
Format : UTF-8
Codec ID : S_TEXT/UTF8
Codec ID/Info : UTF-8 Plain Text
Duration : 12 min 40 s
Bit rate : 94 b/s
Count of elements : 169
Stream size : 8.73 KiB (0%)
Title : Nederlands
Language : Dutch
Default : No
Forced : No

Text #10
ID : 12
Format : UTF-8
Codec ID : S_TEXT/UTF8
Codec ID/Info : UTF-8 Plain Text
Duration : 12 min 44 s
Bit rate : 108 b/s
Count of elements : 236
Stream size : 10.1 KiB (0%)
Title : Norsk
Language : Norwegian
Default : No
Forced : No

Text #11
ID : 13
Format : UTF-8
Codec ID : S_TEXT/UTF8
Codec ID/Info : UTF-8 Plain Text
Duration : 12 min 48 s
Bit rate : 102 b/s
Count of elements : 234
Stream size : 9.64 KiB (0%)
Title : Polski
Language : Polish
Default : No
Forced : No

Text #12
ID : 14
Format : UTF-8
Codec ID : S_TEXT/UTF8
Codec ID/Info : UTF-8 Plain Text
Duration : 12 min 48 s
Bit rate : 110 b/s
Count of elements : 238
Stream size : 10.3 KiB (0%)
Title : Português
Language : Portuguese
Default : No
Forced : No

Text #13
ID : 15
Format : UTF-8
Codec ID : S_TEXT/UTF8
Codec ID/Info : UTF-8 Plain Text
Duration : 12 min 48 s
Bit rate : 109 b/s
Count of elements : 238
Stream size : 10.2 KiB (0%)
Title : Português (Brasil)
Language : Portuguese
Default : No
Forced : No

Text #14
ID : 16
Format : UTF-8
Codec ID : S_TEXT/UTF8
Codec ID/Info : UTF-8 Plain Text
Duration : 12 min 44 s
Bit rate : 119 b/s
Count of elements : 237
Stream size : 11.1 KiB (0%)
Title : Svenska
Language : Swedish
Default : No
Forced : No
















Files:

Inside.Pixar.S01.HDR.2160p.WEB.h265-KOGi[rartv]
  • Inside.Pixar.S01E01.HDR.2160p.WEB.h265-KOGi.mkv (1.1 GB)
  • Inside.Pixar.S01E02.HDR.2160p.WEB.h265-KOGi.mkv (1.2 GB)
  • Inside.Pixar.S01E03.HDR.2160p.WEB.h265-KOGi.mkv (1.0 GB)
  • Inside.Pixar.S01E04.HDR.2160p.WEB.h265-KOGi.mkv (1.2 GB)
  • Inside.Pixar.S01E05.HDR.2160p.WEB.h265-KOGi.mkv (1.5 GB)
  • RARBG.txt (0.0 KB)

There are currently no comments. Feel free to leave one :)

Code:

  • http://tracker.trackerfix.com:80/announce
  • udp://9.rarbg.me:2920/announce
  • udp://9.rarbg.to:2910/announce