Shameless.Hall.of.Shame.S01E03.1080p.WEB.H264-GGEZ

  • Category TV
  • Type HD
  • Language English
  • Total size 3.6 GB
  • Uploaded By prudence25
  • Downloads 177
  • Last checked 1 month ago
  • Date uploaded 1 month ago
  • Seeders 26
  • Leechers 5

Infohash : CC2E0B88F717C5B9C784BE4B8F4793B1C49B6355











Code:

Video
ID : 1
Format : AVC
Format/Info : Advanced Video Codec
Format profile : [email protected]
Format settings : CABAC / 4 Ref Frames
Format settings, CABAC : Yes
Format settings, Reference frames : 4 frames
Codec ID : V_MPEG4/ISO/AVC
Duration : 51 min 10 s
Bit rate mode : Constant
Bit rate : 9 206 kb/s
Nominal bit rate : 10 000 kb/s
Width : 1 920 pixels
Height : 1 080 pixels
Display aspect ratio : 16:9
Frame rate mode : Constant
Frame rate : 23.976 (24000/1001) FPS
Color space : YUV
Chroma subsampling : 4:2:0
Bit depth : 8 bits
Scan type : Progressive
Bits/(Pixel*Frame) : 0.185
Stream size : 3.29 GiB (92%)
Default : Yes
Forced : No
Color range : Limited
Color primaries : BT.709
Transfer characteristics : BT.709
Matrix coefficients : BT.709

Audio
ID : 2
Format : E-AC-3
Format/Info : Enhanced AC-3
Commercial name : Dolby Digital Plus
Codec ID : A_EAC3
Duration : 51 min 10 s
Bit rate mode : Constant
Bit rate : 640 kb/s
Channel(s) : 6 channels
Channel layout : L R C LFE Ls Rs
Sampling rate : 48.0 kHz
Frame rate : 31.250 FPS (1536 SPF)
Compression mode : Lossy
Delay relative to video : 14 ms
Stream size : 234 MiB (6%)
Language : English
Service kind : Complete Main
Default : Yes
Forced : No

Text
ID : 3
Format : UTF-8
Codec ID : S_TEXT/UTF8
Codec ID/Info : UTF-8 Plain Text
Title : English
Language : English
Default : No
Forced : No





Files:

Shameless.Hall.of.Shame.S01E03.1080p.WEB.H264-GGEZ[rarbg]
  • RARBG.txt (0.0 KB)
  • RARBG_DO_NOT_MIRROR.exe (0.1 KB)
  • shameless.hall.of.shame.s01e03.1080p.web.h264-ggez.mkv (3.6 GB)
  • shameless.hall.of.shame.s01e03.1080p.web.h264-ggez.nfo (0.0 KB)
  • shameless.hall.of.shame.s01e03.1080p.web.h264-ggez_tvm.jpg (444.0 KB)

There are currently no comments. Feel free to leave one :)

Code:

  • http://tracker.trackerfix.com:80/announce
  • udp://9.rarbg.me:2780/announce
  • udp://9.rarbg.to:2890/announce