Your.Honor.S01E07.720p.WEB.6CH.H264

  • Category TV
  • Type HD
  • Language English
  • Total size 1.1 GB
  • Uploaded By prudence25
  • Downloads 689
  • Last checked 1 month ago
  • Date uploaded 1 month ago
  • Seeders 104
  • Leechers 25

Infohash : 7C63644C93D7199ADD87C65F39CF76276FD42606









Quote:

Video
ID : 1
Format : AVC
Format/Info : Advanced Video Codec
Format profile : [email protected]
Format settings : CABAC / 4 Ref Frames
Format settings, CABAC : Yes
Format settings, Reference frames : 4 frames
Format settings, GOP : M=4, N=48
Codec ID : V_MPEG4/ISO/AVC
Duration : 55 min 3 s
Bit rate mode : Constant
Bit rate : 2 233 kb/s
Nominal bit rate : 6 000 kb/s
Width : 1 280 pixels
Height : 720 pixels
Display aspect ratio : 16:9
Frame rate mode : Constant
Frame rate : 23.976 (24000/1001) FPS
Color space : YUV
Chroma subsampling : 4:2:0
Bit depth : 8 bits
Scan type : Progressive
Bits/(Pixel*Frame) : 0.101
Stream size : 879 MiB (76%)
Default : Yes
Forced : No
Color range : Limited
Color primaries : BT.709
Transfer characteristics : BT.709
Matrix coefficients : BT.709

Audio
ID : 2
Format : E-AC-3
Format/Info : Enhanced AC-3
Commercial name : Dolby Digital Plus
Codec ID : A_EAC3
Duration : 55 min 3 s
Bit rate mode : Constant
Bit rate : 640 kb/s
Channel(s) : 6 channels
Channel layout : L R C LFE Ls Rs
Sampling rate : 48.0 kHz
Frame rate : 31.250 FPS (1536 SPF)
Compression mode : Lossy
Delay relative to video : 14 ms
Stream size : 252 MiB (22%)
Language : English
Service kind : Complete Main
Default : Yes
Forced : No

Text
ID : 3
Format : UTF-8
Codec ID : S_TEXT/UTF8
Codec ID/Info : UTF-8 Plain Text
Title : English
Language : English
Default : No
Forced : No














Files:

Your.Honor.S01E07.720p.WEB.H264-GGEZ[rarbg]
  • RARBG.txt (0.0 KB)
  • RARBG_DO_NOT_MIRROR.exe (0.1 KB)
  • your.honor.s01e07.720p.web.h264-ggez.mkv (1.1 GB)
  • your.honor.s01e07.720p.web.h264-ggez.nfo (0.0 KB)
  • your.honor.s01e07.720p.web.h264-ggez_tvm.jpg (1.9 MB)

There are currently no comments. Feel free to leave one :)

Code:

  • http://tracker.trackerfix.com:80/announce
  • udp://9.rarbg.me:2820/announce
  • udp://9.rarbg.to:2810/announce