A Star Is Born (2018)Mp-4-X264-Blu-Ray Rip-1080p-AAC-DSD

  • Category Movies
  • Type HD
  • Language English
  • Total size 2.1 GB
  • Uploaded By dascuba1337
  • Downloads 228
  • Last checked 1 month ago
  • Date uploaded 1 month ago
  • Seeders 24
  • Leechers 3

A Star Is Born

DramaMusicRomance

Seasoned musician Jackson Maine discovers—and falls in love with—struggling artist Ally. She has just about given up on her dream to make it big as a singer—until Jack coaxes her into the spotlight. But even as Ally's career takes off, the personal side of their relationship is breaking down, as Jack fights an ongoing battle with his own internal demons.

Infohash : EAE831B2AB3195EF6EB27E6A5C52FCFE606CD1F6




A Star Is Born (2018)
1080p BluRay-Rip
Hash Code:


EAE831B2AB3195EF6EB27E6A5C52FCFE606CD1F6











^Tap on image above for IMDb Info for this film^



General
Complete name                            : A_STAR_IS_BORN_(2018).Title2.mp4
Format                                   : MPEG-4
Format profile                           : Base Media / Version 2
Codec ID                                 : mp42 (mp42/isom/avc1)
File size                                : 2.13 GiB
Duration                                 : 2 h 15 min
Overall bit rate mode                    : Variable
Overall bit rate                         : 2 246 kb/s
Movie name                               : STAR_IS_BORN__A_(2018).Title2
Album                                    : A_STAR_IS_BORN_2018
Encoded date                             : UTC 2019-06-15 01:00:41
Tagged date                              : UTC 2019-06-15 02:45:55
Writing application                      : DVDFab 11.0.3.4
Cover                                    : Yes

Video
ID                                       : 1
Format                                   : AVC
Format/Info                              : Advanced Video Codec
Format profile                           : [email protected]
Format settings                          : CABAC / 2 Ref Frames
Format settings, CABAC                   : Yes
Format settings, Reference frames        : 2 frames
Format settings, GOP                     : M=1, N=24
Codec ID                                 : avc1
Codec ID/Info                            : Advanced Video Coding
Duration                                 : 2 h 15 min
Bit rate mode                            : Variable
Bit rate                                 : 1 784 kb/s
Maximum bit rate                         : 2 763 kb/s
Width                                    : 1 920 pixels
Height                                   : 800 pixels
Display aspect ratio                     : 2.40:1
Frame rate mode                          : Constant
Frame rate                               : 23.976 (24000/1001) FPS
Color space                              : YUV
Chroma subsampling                       : 4:2:0
Bit depth                                : 8 bits
Scan type                                : Progressive
Bits/(Pixel*Frame)                       : 0.048
Stream size                              : 1.69 GiB (79%)
Encoded date                             : UTC 2019-06-15 01:00:41
Tagged date                              : UTC 2019-06-15 02:45:55
Color primaries                          : BT.709
Transfer characteristics                 : BT.709
Matrix coefficients                      : BT.709
Menus                                    : 4
Codec configuration box                  : avcC

Audio
ID                                       : 2
Format                                   : AAC LC
Format/Info                              : Advanced Audio Codec Low Complexity
Codec ID                                 : mp4a-40-2
Duration                                 : 2 h 15 min
Bit rate mode                            : Variable
Bit rate                                 : 448 kb/s
Maximum bit rate                         : 454 kb/s
Channel(s)                               : 6 channels
Channel layout                           : C L R Ls Rs LFE
Sampling rate                            : 48.0 kHz
Frame rate                               : 46.875 FPS (1024 SPF)
Compression mode                         : Lossy
Stream size                              : 435 MiB (20%)
Title                                    : English (aac 5.1)
Language                                 : English
Default                                  : Yes
Alternate group                          : 1
Encoded date                             : UTC 2019-06-15 01:00:41
Tagged date                              : UTC 2019-06-15 02:45:55

Text
ID                                       : 3
Format                                   : VobSub
Codec ID                                 : mp4s-E0
Codec ID/Info                            : The same subtitle format used on DVDs
Duration                                 : 2 h 15 min
Bit rate mode                            : Variable
Bit rate                                 : 10.8 kb/s
Maximum bit rate                         : 4 249 Mb/s
Stream size                              : 10.5 MiB (0%)
Language                                 : English
Default                                  : Yes
Forced                                   : No
Alternate group                          : 2
Encoded date                             : UTC 2019-06-15 01:00:41
Tagged date                              : UTC 2019-06-15 02:45:46

Files:

  • STAR_IS_BORN__A_(2018).Title2.mp4 (2.1 GB)

There are currently no comments. Feel free to leave one :)

Code:

  • udp://tracker.openbittorrent.com:80/announce
  • udp://tracker.opentrackr.org:1337/announce
  • udp://tracker.coppersurfer.tk:6969/announce
  • udp://9.rarbg.to:2710/announce