Goosebumps 2 Haunted Halloween (2018) 1080p BDRip x264 Dual Audio...

  • Category Movies
  • Type Dubs/Dual Audio
  • Language Hindi
  • Total size 4.0 GB
  • Uploaded By meguil
  • Downloads 544
  • Last checked 1 month ago
  • Date uploaded 1 month ago
  • Seeders 13
  • Leechers 10

Goosebumps 2: Haunted Halloween

AdventureComedyFantasyHorrorFamily

Two boys face an onslaught from witches, monsters, ghouls and a talking dummy after they discover a mysterious book by author R. L. Stine.

Infohash : 584D98A0B7E0132442D0C9F437B8AA2955D97376



Release Title
Goosebumps 2 Haunted Halloween (2018) 1080p BDRip x264 Dual Audio English Hindi AC3 5.1 - MeGUiL



IMDB Link
https://www.imdb.com/title/tt5664636/

IMDb Rating
5.6/10 (17,610 user)

Screens:
Click to enlarge














Code:

Media Info
General
Format : Matroska
Format version : Version 4
File size : 3.98 GiB
Duration : 1 h 29 min
Overall bit rate mode : Constant
Overall bit rate : 6 347 kb/s
Movie name : Goosebumps 2 Haunted Halloween (2018) 1080p BDRip x264 Dual Audio English Hindi AC3 5.1 - MeGUiL
Encoded date : UTC 2020-12-01 17:41:46
Writing application : mkvmerge v7.7.0 ('Six Voices') 64bit built on Feb 28 2015 23:39:33
Writing library : libebml v1.3.1 + libmatroska v1.4.2

Video
ID : 1
Format : AVC
Format/Info : Advanced Video Codec
Format profile : [email protected]
Format settings : CABAC / 1 Ref Frames
Format settings, CABAC : Yes
Format settings, Reference frames : 1 frame
Codec ID : V_MPEG4/ISO/AVC
Duration : 1 h 29 min
Bit rate mode : Constant
Bit rate : 5 102 kb/s
Width : 1 920 pixels
Height : 804 pixels
Display aspect ratio : 2.40:1
Frame rate mode : Constant
Frame rate : 23.976 (24000/1001) FPS
Color space : YUV
Chroma subsampling : 4:2:0
Bit depth : 8 bits
Scan type : Progressive
Bits/(Pixel*Frame) : 0.138
Stream size : 3.18 GiB (80%)
Title : Goosebumps 2 Haunted Halloween (2018) 1080p BDRip x264 Dual Audio English Hindi AC3 5.1 - MeGUiL
Default : Yes
Forced : No
Color range : Limited
Color primaries : BT.709
Transfer characteristics : BT.709
Matrix coefficients : BT.709

Audio #1
ID : 2
Format : AC-3
Format/Info : Audio Coding 3
Commercial name : Dolby Digital
Codec ID : A_AC3
Duration : 1 h 29 min
Bit rate mode : Constant
Bit rate : 640 kb/s
Channel(s) : 6 channels
Channel layout : L R C LFE Ls Rs
Sampling rate : 48.0 kHz
Frame rate : 31.250 FPS (1536 SPF)
Compression mode : Lossy
Delay relative to video : -5 ms
Stream size : 411 MiB (10%)
Title : AC3 640 kbps 5.1 - MeGUiL
Language : English
Service kind : Complete Main
Default : Yes
Forced : No

Audio #2
ID : 3
Format : AC-3
Format/Info : Audio Coding 3
Commercial name : Dolby Digital
Codec ID : A_AC3
Duration : 1 h 29 min
Bit rate mode : Constant
Bit rate : 640 kb/s
Channel(s) : 6 channels
Channel layout : L R C LFE Ls Rs
Sampling rate : 48.0 kHz
Frame rate : 31.250 FPS (1536 SPF)
Compression mode : Lossy
Delay relative to video : 1 s 27 ms
Stream size : 411 MiB (10%)
Title : AC3 640 kbps 5.1 - MeGUiL
Language : Hindi
Service kind : Complete Main
Default : No
Forced : No

Menu
00:00:00.000 : :Chapter 1
00:04:33.190 : :Chapter 2
00:11:16.050 : :Chapter 3
00:18:43.789 : :Chapter 4
00:21:41.634 : :Chapter 5
00:27:23.225 : :Chapter 6
00:32:36.913 : :Chapter 7
00:37:48.099 : :Chapter 8
00:45:14.837 : :Chapter 9
00:50:12.051 : :Chapter 10
00:56:18.000 : :Chapter 11
01:00:35.757 : :Chapter 12
01:05:28.133 : :Chapter 13
01:09:25.078 : :Chapter 14
01:14:37.640 : :Chapter 15
01:20:29.325 : :Chapter 16


Files:

Goosebumps 2 Haunted Halloween (2018) 1080p BDRip x264 Dual Audio English Hindi AC3 5.1 - MeGUiL
  • Goosebumps 2 Haunted Halloween (2018) 1080p BDRip x264 Dual Audio English Hindi AC3 5.1 - MeGUiL.mkv (4.0 GB)
  • Sample.mkv (46.6 MB)

There are currently no comments. Feel free to leave one :)

Code:

  • udp://tracker.opentrackr.org:1337/announce
  • http://tracker.foreverpirates.co:80/announce
  • udp://46.148.18.250:2710
  • udp://opentor.org:2710
  • udp://exodus.desync.com:6969/announce
  • udp://open.stealth.si:80/announce
  • udp://tracker.cyberia.is:6969/announce
  • http://tracker.dler.org:6969/announce
  • udp://tracker.leechers-paradise.org:6969/announce
  • udp://tracker.moeking.me:6969/announce
  • udp://tracker.tiny-vps.com:6969/announce
  • udp://tracker.torrent.eu.org:451/announce
  • udp://inferno.demonoid.is:3391/announce