Goosebumps (2015) 1080p BDRip x264 Dual Audio English Hindi AC3 5...

  • Category Movies
  • Type Dubs/Dual Audio
  • Language Hindi
  • Total size 4.6 GB
  • Uploaded By meguil
  • Downloads 483
  • Last checked 1 month ago
  • Date uploaded 1 month ago
  • Seeders 15
  • Leechers 12

Goosebumps

AdventureHorrorComedy

A young kid teams up with the niece of young adult horror author R.L. Stine after the writer's imaginary demons are set free on the town of Greendale, Maryland.

Infohash : 331EF9E73B88DC2EC20ED297D4C258F8DA8F063D



Release Title
Goosebumps (2015) 1080p BDRip x264 Dual Audio English Hindi AC3 5.1 - MeGUiL



IMDB Link
https://www.imdb.com/title/tt1051904/

IMDb Rating
6.3/10 (80,068 user)

Screens:
Click to enlarge















Code:

Media Info
General
Format : Matroska
Format version : Version 4
File size : 4.59 GiB
Duration : 1 h 43 min
Overall bit rate mode : Constant
Overall bit rate : 6 369 kb/s
Movie name : Goosebumps (2015) 1080p BDRip x264 Dual Audio English Hindi AC3 - MeGUiL
Encoded date : UTC 2020-12-01 17:28:25
Writing application : mkvmerge v7.7.0 ('Six Voices') 64bit built on Feb 28 2015 23:39:33
Writing library : libebml v1.3.1 + libmatroska v1.4.2

Video
ID : 1
Format : AVC
Format/Info : Advanced Video Codec
Format profile : [email protected]
Format settings : CABAC / 1 Ref Frames
Format settings, CABAC : Yes
Format settings, Reference frames : 1 frame
Codec ID : V_MPEG4/ISO/AVC
Duration : 1 h 43 min
Bit rate mode : Constant
Bit rate : 5 102 kb/s
Width : 1 878 pixels
Height : 802 pixels
Display aspect ratio : 2.35:1
Frame rate mode : Constant
Frame rate : 23.976 (24000/1001) FPS
Color space : YUV
Chroma subsampling : 4:2:0
Bit depth : 8 bits
Scan type : Progressive
Bits/(Pixel*Frame) : 0.141
Stream size : 3.67 GiB (80%)
Title : Goosebumps (2015) 1080p BDRip x264 Dual Audio English Hindi AC3 - MeGUiL
Default : Yes
Forced : No
Color range : Limited
Color primaries : BT.709
Transfer characteristics : BT.709
Matrix coefficients : BT.709

Audio #1
ID : 2
Format : AC-3
Format/Info : Audio Coding 3
Commercial name : Dolby Digital
Codec ID : A_AC3
Duration : 1 h 43 min
Bit rate mode : Constant
Bit rate : 640 kb/s
Channel(s) : 6 channels
Channel layout : L R C LFE Ls Rs
Sampling rate : 48.0 kHz
Frame rate : 31.250 FPS (1536 SPF)
Compression mode : Lossy
Delay relative to video : -5 ms
Stream size : 473 MiB (10%)
Title : AC3 640 kbps 5.1 - MeGUiL
Language : English
Service kind : Complete Main
Default : Yes
Forced : No

Audio #2
ID : 3
Format : AC-3
Format/Info : Audio Coding 3
Commercial name : Dolby Digital
Codec ID : A_AC3
Duration : 1 h 43 min
Bit rate mode : Constant
Bit rate : 640 kb/s
Channel(s) : 6 channels
Channel layout : L R C LFE Ls Rs
Sampling rate : 48.0 kHz
Frame rate : 31.250 FPS (1536 SPF)
Compression mode : Lossy
Delay relative to video : -5 ms
Stream size : 473 MiB (10%)
Title : AC3 640 kbps 5.1 - MeGUiL
Language : Hindi
Service kind : Complete Main
Default : No
Forced : No

Menu
00:00:00.000 : :00:00:00.000
00:08:09.698 : :00:08:09.698
00:11:45.955 : :00:11:45.955
00:17:54.031 : :00:17:54.031
00:21:52.853 : :00:21:52.853
00:27:57.843 : :00:27:57.843
00:32:40.292 : :00:32:40.292
00:38:29.849 : :00:38:29.849
00:44:37.008 : :00:44:37.008
00:52:01.452 : :00:52:01.452
00:58:12.948 : :00:58:12.948
01:03:40.608 : :01:03:40.608
01:09:56.317 : :01:09:56.317
01:16:40.763 : :01:16:40.763
01:22:55.220 : :01:22:55.220
01:31:13.134 : :01:31:13.093


Files:

Goosebumps (2015) 1080p BDRip x264 Dual Audio English Hindi AC3 - MeGUiL
  • Goosebumps (2015) 1080p BDRip x264 Dual Audio English Hindi AC3 - MeGUiL.mkv (4.6 GB)
  • Sample.mkv (46.6 MB)

Comments

Code:

  • udp://tracker.opentrackr.org:1337/announce
  • http://tracker.foreverpirates.co:80/announce
  • udp://46.148.18.250:2710
  • udp://opentor.org:2710
  • udp://exodus.desync.com:6969/announce
  • udp://open.stealth.si:80/announce
  • udp://tracker.cyberia.is:6969/announce
  • http://tracker.dler.org:6969/announce
  • udp://tracker.leechers-paradise.org:6969/announce
  • udp://tracker.moeking.me:6969/announce
  • udp://tracker.tiny-vps.com:6969/announce
  • udp://tracker.torrent.eu.org:451/announce
  • udp://inferno.demonoid.is:3391/announce