Angel Has Fallen (2019) 1080p BDRip x264 Dual Audio English 5.1 H...

  • Category Movies
  • Type Dubs/Dual Audio
  • Language Hindi
  • Total size 2.5 GB
  • Uploaded By meguil
  • Downloads 1662
  • Last checked 1 month ago
  • Date uploaded 1 month ago
  • Seeders 11
  • Leechers 7

Angel Has Fallen

Action

Secret Service Agent Mike Banning is framed for the attempted assassination of the President and must evade his own agency and the FBI as he tries to uncover the real threat.

Infohash : 4609479429D22D3F44AC62D7C3A45155CC8D9DD0



Release Title
Angel Has Fallen (2019) 1080p BDRip x264 Dual Audio English 5.1 Hindi 2.0 AC3 - MeGUiL

IMDB Link
https://www.imdb.com/title/tt6189022/

IMDb Rating
6.4/10 (76,118 user)

Screens:
Click to enlarge
















Code:

Media Info
General
Format                                   : Matroska
Format version                           : Version 4
File size                                : 2.52 GiB
Duration                                 : 2 h 1 min
Overall bit rate mode                    : Constant
Overall bit rate                         : 2 977 kb/s
Movie name                               : Angel Has Fallen (2019) 1080p BDRip x264 Dual Audio English 5.1 Hindi 2.0 AC3 - MeGUiL
Encoded date                             : UTC 2020-12-01 15:05:04
Writing application                      : mkvmerge v7.7.0 ('Six Voices') 64bit built on Feb 28 2015 23:39:33
Writing library                          : libebml v1.3.1 + libmatroska v1.4.2

Video
ID                                       : 1
Format                                   : AVC
Format/Info                              : Advanced Video Codec
Format profile                           : [email protected]
Format settings                          : CABAC / 1 Ref Frames
Format settings, CABAC                   : Yes
Format settings, Reference frames        : 1 frame
Codec ID                                 : V_MPEG4/ISO/AVC
Duration                                 : 2 h 1 min
Bit rate mode                            : Constant
Bit rate                                 : 2 491 kb/s
Width                                    : 1 920 pixels
Height                                   : 800 pixels
Display aspect ratio                     : 2.40:1
Frame rate mode                          : Constant
Frame rate                               : 23.976 (24000/1001) FPS
Color space                              : YUV
Chroma subsampling                       : 4:2:0
Bit depth                                : 8 bits
Scan type                                : Progressive
Bits/(Pixel*Frame)                       : 0.068
Stream size                              : 2.06 GiB (82%)
Title                                    : Angel Has Fallen (2019) 1080p BDRip x264 Dual Audio English 5.1 Hindi 2.0 AC3 - MeGUiL
Default                                  : Yes
Forced                                   : No
Color range                              : Limited
Color primaries                          : BT.709
Transfer characteristics                 : BT.709
Matrix coefficients                      : BT.709

Audio #1
ID                                       : 2
Format                                   : AC-3
Format/Info                              : Audio Coding 3
Commercial name                          : Dolby Digital
Codec ID                                 : A_AC3
Duration                                 : 2 h 1 min
Bit rate mode                            : Constant
Bit rate                                 : 320 kb/s
Channel(s)                               : 6 channels
Channel layout                           : L R C LFE Ls Rs
Sampling rate                            : 48.0 kHz
Frame rate                               : 31.250 FPS (1536 SPF)
Compression mode                         : Lossy
Delay relative to video                  : -5 ms
Stream size                              : 277 MiB (11%)
Title                                    : AC3 320 kbps 5.1 - MeGUiL
Language                                 : English
Service kind                             : Complete Main
Default                                  : Yes
Forced                                   : No

Audio #2
ID                                       : 3
Format                                   : AC-3
Format/Info                              : Audio Coding 3
Commercial name                          : Dolby Digital
Codec ID                                 : A_AC3
Duration                                 : 2 h 1 min
Bit rate mode                            : Constant
Bit rate                                 : 224 kb/s
Channel(s)                               : 2 channels
Channel layout                           : L R
Sampling rate                            : 48.0 kHz
Frame rate                               : 31.250 FPS (1536 SPF)
Compression mode                         : Lossy
Delay relative to video                  : -5 ms
Stream size                              : 194 MiB (8%)
Title                                    : AC3 224 kbps 2.0 - MeGUiL
Language                                 : Hindi
Service kind                             : Complete Main
Default                                  : No
Forced                                   : No

Menu
00:00:00.000                             : :Chapter 1
00:06:49.075                             : :Chapter 2
00:15:08.241                             : :Chapter 3
00:23:13.893                             : :Chapter 4
00:28:35.714                             : :Chapter 5
00:39:39.836                             : :Chapter 6
00:45:33.773                             : :Chapter 7
00:50:56.053                             : :Chapter 8
00:59:23.602                             : :Chapter 9
01:06:50.924                             : :Chapter 10
01:16:25.873                             : :Chapter 11
01:24:11.046                             : :Chapter 12
01:30:14.409                             : :Chapter 13
01:37:42.190                             : :Chapter 14
01:44:54.747                             : :Chapter 15
01:51:08.120                             : :Chapter 16


Files:

Angel Has Fallen (2019) 1080p BDRip x264 Dual Audio English 5.1 Hindi 2.0 AC3 - MeGUiL
  • Angel Has Fallen (2019) 1080p BDRip x264 Dual Audio English 5.1 Hindi 2.0 AC3 - MeGUiL.mkv (2.5 GB)
  • Sample.mkv (22.1 MB)

There are currently no comments. Feel free to leave one :)

Code:

  • udp://tracker.opentrackr.org:1337/announce
  • http://tracker.foreverpirates.co:80/announce
  • udp://46.148.18.250:2710
  • udp://opentor.org:2710
  • udp://exodus.desync.com:6969/announce
  • udp://open.stealth.si:80/announce
  • udp://tracker.cyberia.is:6969/announce
  • http://tracker.dler.org:6969/announce
  • udp://tracker.leechers-paradise.org:6969/announce
  • udp://tracker.moeking.me:6969/announce
  • udp://tracker.tiny-vps.com:6969/announce
  • udp://tracker.torrent.eu.org:451/announce
  • udp://inferno.demonoid.is:3391/announce