Angel Has Fallen (2019) 1080p BDRip x264 Dual Audio English Hindi...

  • Category Movies
  • Type Dubs/Dual Audio
  • Language Hindi
  • Total size 4.6 GB
  • Uploaded By meguil
  • Downloads 742
  • Last checked 1 month ago
  • Date uploaded 1 month ago
  • Seeders 23
  • Leechers 8

Angel Has Fallen

Action

Secret Service Agent Mike Banning is framed for the attempted assassination of the President and must evade his own agency and the FBI as he tries to uncover the real threat.

Infohash : FE61DD04AB85D6573B0CA1543A733395CCB01732



Release Title
Angel Has Fallen (2019) 1080p BDRip x264 Dual Audio English Hindi AC3 - MeGUiL

IMDB Link
https://www.imdb.com/title/tt6189022/

IMDb Rating
6.4/10 (76,118 user)

Screens:
Click to enlarge
















Code:

Media Info
General
Format                                   : Matroska
Format version                           : Version 4
File size                                : 4.58 GiB
Duration                                 : 2 h 0 min
Overall bit rate                         : 5 434 kb/s
Movie name                               : Angel Has Fallen (2019) 1080p BDRip x264 Dual Audio English Hindi AC3 - MeGUiL
Encoded date                             : UTC 2020-12-01 14:38:49
Writing application                      : mkvmerge v7.7.0 ('Six Voices') 64bit built on Feb 28 2015 23:39:33
Writing library                          : libebml v1.3.1 + libmatroska v1.4.2

Video
ID                                       : 1
Format                                   : AVC
Format/Info                              : Advanced Video Codec
Format profile                           : [email protected]
Format settings                          : CABAC / 5 Ref Frames
Format settings, CABAC                   : Yes
Format settings, Reference frames        : 5 frames
Codec ID                                 : V_MPEG4/ISO/AVC
Duration                                 : 2 h 0 min
Bit rate                                 : 4 569 kb/s
Width                                    : 1 912 pixels
Height                                   : 796 pixels
Display aspect ratio                     : 2.40:1
Frame rate mode                          : Constant
Frame rate                               : 23.976 (24000/1001) FPS
Color space                              : YUV
Chroma subsampling                       : 4:2:0
Bit depth                                : 8 bits
Scan type                                : Progressive
Bits/(Pixel*Frame)                       : 0.125
Stream size                              : 3.85 GiB (84%)
Title                                    : Angel Has Fallen (2019) 1080p BDRip x264 Dual Audio English Hindi AC3 - MeGUiL
Default                                  : Yes
Forced                                   : No
Color range                              : Limited
Color primaries                          : BT.709
Transfer characteristics                 : BT.709
Matrix coefficients                      : BT.709

Audio #1
ID                                       : 2
Format                                   : AC-3
Format/Info                              : Audio Coding 3
Commercial name                          : Dolby Digital
Codec ID                                 : A_AC3
Duration                                 : 2 h 0 min
Bit rate mode                            : Constant
Bit rate                                 : 640 kb/s
Channel(s)                               : 6 channels
Channel layout                           : L R C LFE Ls Rs
Sampling rate                            : 48.0 kHz
Frame rate                               : 31.250 FPS (1536 SPF)
Compression mode                         : Lossy
Delay relative to video                  : -38 ms
Stream size                              : 553 MiB (12%)
Title                                    : AC3 640 kbps 5.1 - MeGUiL
Language                                 : English
Service kind                             : Complete Main
Default                                  : Yes
Forced                                   : No

Audio #2
ID                                       : 3
Format                                   : E-AC-3
Format/Info                              : Enhanced AC-3
Commercial name                          : Dolby Digital Plus
Codec ID                                 : A_EAC3
Duration                                 : 2 h 0 min
Bit rate mode                            : Constant
Bit rate                                 : 224 kb/s
Channel(s)                               : 2 channels
Channel layout                           : L R
Sampling rate                            : 48.0 kHz
Frame rate                               : 31.250 FPS (1536 SPF)
Compression mode                         : Lossy
Delay relative to video                  : -38 ms
Stream size                              : 193 MiB (4%)
Title                                    : AC3 224 kbps 2.0 - MeGUiL
Language                                 : Hindi
Service kind                             : Complete Main
Default                                  : No
Forced                                   : No

Menu
00:00:00.000                             : en:1
00:01:15.000                             : en:2
00:11:16.000                             : en:3
00:22:56.000                             : en:4
00:32:13.000                             : en:5
00:40:44.000                             : en:6
00:50:39.000                             : en:7
01:02:49.000                             : en:8
01:11:51.000                             : en:9
01:19:18.000                             : en:10
01:29:53.000                             : en:11
01:40:07.000                             : en:12
01:52:52.000                             : en:13


Files:

Angel Has Fallen (2019) 1080p BDRip x264 Dual Audio English Hindi AC3 - MeGUiL
  • Angel Has Fallen (2019) 1080p BDRip x264 Dual Audio English Hindi AC3 - MeGUiL.mkv (4.6 GB)
  • Sample.mkv (35.2 MB)

Comments

Code:

  • udp://tracker.opentrackr.org:1337/announce
  • http://tracker.foreverpirates.co:80/announce
  • udp://46.148.18.250:2710
  • udp://opentor.org:2710
  • udp://exodus.desync.com:6969/announce
  • udp://open.stealth.si:80/announce
  • udp://tracker.cyberia.is:6969/announce
  • http://tracker.dler.org:6969/announce
  • udp://tracker.leechers-paradise.org:6969/announce
  • udp://tracker.moeking.me:6969/announce
  • udp://tracker.tiny-vps.com:6969/announce
  • udp://tracker.torrent.eu.org:451/announce
  • udp://inferno.demonoid.is:3391/announce