The.Mandalorian.S02E05.WEBRip.x264-ION10

  • Category TV
  • Type SD
  • Language English
  • Total size 430.9 MB
  • Uploaded By MissionVow
  • Downloads 34452
  • Last checked 1 month ago
  • Date uploaded 1 month ago
  • Seeders 2003
  • Leechers 119

Infohash : 3C4EC0482475A430CB6F36C5E5FD2DFA30251E63

The.Mandalorian.S02E05.WEBRip.x264-ION10

Upload provided by The Galactic Republic
Join us @ https://discord.gg/a4ee7bF and start your journey to find the Trove... good luck

Description:
https://www.imdb.com/title/tt13052856/

Full Image URLs:
https://orangepix.is/image/p0xqH
https://orangepix.is/image/p0Ygr
https://orangepix.is/image/p0eOk
https://orangepix.is/image/p0DBh
https://orangepix.is/image/p0udU
https://orangepix.is/image/p05pJ

Medium Size Thumbnails:







MEDIA INFO:
Format                                   : MPEG-4
Format profile                           : Base Media
Codec ID                                 : isom (isom/iso2/avc1/mp41)
File size                                : 431 MiB
Duration                                 : 44 min 45 s
Overall bit rate                         : 1 345 kb/s
Movie name                               : The.Mandalorian.S02E05.WEBRip.x264-ION10
Encoded date                             : UTC 2020-11-27 08:01:29
Tagged date                              : UTC 2020-11-27 08:01:29
Writing application                      : Lavf58.0.101
Comment                                  : The.Mandalorian.S02E05.WEBRip.x264-ION10

Video
ID                                       : 1
Format                                   : AVC
Format/Info                              : Advanced Video Codec
Format profile                           : [email protected]
Format settings                          : CABAC / 5 Ref Frames
Format settings, CABAC                   : Yes
Format settings, Reference frames        : 5 frames
Codec ID                                 : avc1
Codec ID/Info                            : Advanced Video Coding
Duration                                 : 44 min 45 s
Bit rate                                 : 1 100 kb/s
Width                                    : 720 pixels
Height                                   : 302 pixels
Display aspect ratio                     : 2.40:1
Original display aspect ratio            : 2.40:1
Frame rate mode                          : Constant
Frame rate                               : 23.976 (24000/1001) FPS
Color space                              : YUV
Chroma subsampling                       : 4:2:0
Bit depth                                : 8 bits
Scan type                                : Progressive
Bits/(Pixel*Frame)                       : 0.211
Stream size                              : 347 MiB (81%)
Title                                    : The.Mandalorian.S02E05.WEBRip.x264-ION10
Writing library                          : x264 core 148 r2795M aaa9aa8
Encoding settings                        : cabac=1 / ref=5 / deblock=1:-1:-1 / analyse=0x3:0x113 / me=umh / subme=9 / psy=1 / psy_rd=1.00:0.15 / mixed_ref=1 / me_range=16 / chroma_me=1 / trellis=2 / 8x8dct=1 / cqm=0 / deadzone=21,11 / fast_pskip=1 / chroma_qp_offset=-3 / threads=24 / lookahead_threads=2 / sliced_threads=0 / nr=0 / decimate=1 / interlaced=0 / bluray_compat=0 / constrained_intra=0 / bframes=3 / b_pyramid=2 / b_adapt=2 / b_bias=0 / direct=3 / weightb=1 / open_gop=0 / weightp=2 / keyint=250 / keyint_min=23 / scenecut=40 / intra_refresh=0 / rc_lookahead=50 / rc=abr / mbtree=1 / bitrate=1100 / ratetol=1.0 / qcomp=0.60 / qpmin=0 / qpmax=69 / qpstep=4 / ip_ratio=1.40 / aq=1:1.00
Encoded date                             : UTC 2020-11-27 08:01:29
Tagged date                              : UTC 2020-11-27 08:01:29
Codec configuration box                  : avcC

Audio
ID                                       : 2
Format                                   : AAC LC
Format/Info                              : Advanced Audio Codec Low Complexity
Codec ID                                 : mp4a-40-2
Duration                                 : 44 min 45 s
Duration_LastFrame                       : -11 ms
Bit rate mode                            : Constant
Bit rate                                 : 256 kb/s
Channel(s)                               : 2 channels
Channel layout                           : L R
Sampling rate                            : 48.0 kHz
Frame rate                               : 46.875 FPS (1024 SPF)
Compression mode                         : Lossy
Stream size                              : 81.9 MiB (19%)
Title                                    : The.Mandalorian.S02E05.WEBRip.x264-ION10
Language                                 : English
Default                                  : Yes
Alternate group                          : 1
Encoded date                             : UTC 2020-11-27 08:01:29
Tagged date                              : UTC 2020-11-27 08:01:29

Files:

The.Mandalorian.S02E05.WEBRip.x264-ION10
  • RARBG.txt (0.0 KB)
  • Subs
    • 10_nor.srt (15.4 KB)
    • 11_Polish.srt (15.9 KB)
    • 12_Portuguese.srt (16.2 KB)
    • 13_Portuguese.srt (16.0 KB)
    • 14_Finnish.srt (16.2 KB)
    • 15_Swedish.srt (15.3 KB)
    • 2_English.srt (23.6 KB)
    • 3_Danish.srt (13.8 KB)
    • 4_German.srt (16.2 KB)
    • 5_Spanish.srt (15.5 KB)
    • 6_Spanish.srt (15.7 KB)
    • 7_French.srt (15.6 KB)
    • 8_Italian.srt (16.0 KB)
    • 9_Dutch.srt (15.3 KB)
  • The.Mandalorian.S02E05.WEBRip.x264-ION10.mp4 (430.7 MB)

Comments

Code:

  • http://tracker.trackerfix.com:80/announce
  • udp://9.rarbg.me:2770/announce
  • udp://9.rarbg.to:2750/announce