Suburra (2017) Season 1 S01 (1080p NF WEBRip x265 HEVC 10bit AC3 ...

  • Category TV
  • Type HEVC/x265
  • Language Italian
  • Total size 8.5 GB
  • Uploaded By QxR
  • Downloads 1043
  • Last checked 16 minutes ago
  • Date uploaded 2 years ago
  • Seeders 7
  • Leechers 2

Infohash : 013A79A456C3B52B594D3A50CBF5EE8A2CC88827



Note from Encoder:

This is a 4K non-HDR downscale to 1080p encoded with CRF 21.5, includes English, French, German, Italian, and Spanish subtitles. Unfortunately, there were a few encoding errors present in the source which are not possible to fix (the worst is around the 59 minute mark of the first episode), if an undamaged source ever becomes available I will consider re-encoding the affected episodes. A huge thanks goes to Panda for donating the CPU power for this project, I couldn’t do it with my rig and this one took a long time!





Media Information

Code:

General
Format : Matroska
Format version : Version 4 / Version 2
File size : 1.14 GiB
Duration : 1 h 2 min
Overall bit rate : 2 597 kb/s
Encoded date : UTC 2018-09-28 17:58:41
Writing application : mkvmerge v26.0.0 ('In The Game') 64-bit
Writing library : libebml v1.3.6 + libmatroska v1.4.9
Writing frontend : StaxRip v1.7.0.6

Video
ID : 1
Format : HEVC
Format/Info : High Efficiency Video Coding
Format profile : Main [email protected]@Main
Codec ID : V_MPEGH/ISO/HEVC
Duration : 1 h 2 min
Bit rate : 2 210 kb/s
Width : 1 920 pixels
Height : 1 038 pixels
Display aspect ratio : 1.85:1
Frame rate mode : Constant
Frame rate : 25.000 FPS
Color space : YUV
Chroma subsampling : 4:2:0
Bit depth : 10 bits
Bits/(Pixel*Frame) : 0.044
Stream size : 991 MiB (85%)
Title : Encoded by r00t
Writing library : x265 2.8+66-88ee12651e30:[Windows][MSVC 1915][64 bit] 10bit
Encoding settings : cpuid=1111039 / frame-threads=2 / numa-pools=4 / wpp / no-pmode / no-pme / no-psnr / no-ssim / log-level=2 / input-csp=1 / input-res=1920x1038 / interlace=0 / total-frames=94007 / level-idc=0 / high-tier=1 / uhd-bd=0 / ref=5 / no-allow-non-conformance / no-repeat-headers / annexb / no-aud / no-hrd / info / hash=0 / no-temporal-layers / open-gop / min-keyint=25 / keyint=250 / gop-lookahead=0 / bframes=8 / b-adapt=2 / b-pyramid / bframe-bias=0 / rc-lookahead=80 / lookahead-slices=4 / scenecut=40 / radl=0 / no-intra-refresh / ctu=64 / min-cu-size=8 / no-rect / no-amp / max-tu-size=32 / tu-inter-depth=1 / tu-intra-depth=1 / limit-tu=0 / rdoq-level=2 / dynamic-rd=0.00 / no-ssim-rd / signhide / no-tskip / nr-intra=0 / nr-inter=0 / no-constrained-intra / no-strong-intra-smoothing / max-merge=4 / limit-refs=3 / limit-modes / me=3 / subme=5 / merange=57 / temporal-mvp / weightp / weightb / no-analyze-src-pics / deblock=-3:-3 / no-sao / no-sao-non-deblock / rd=4 / no-early-skip / no-rskip / no-fast-intra / no-tskip-fast / no-cu-lossless / no-b-intra / no-splitrd-skip / rdpenalty=0 / psy-rd=1.20 / psy-rdoq=1.70 / no-rd-refine / no-lossless / cbqpoffs=0 / crqpoffs=0 / rc=crf / crf=21.5 / qcomp=0.60 / qpstep=4 / stats-write=0 / stats-read=0 / ipratio=1.40 / pbratio=1.30 / aq-mode=3 / aq-strength=0.60 / cutree / zone-count=0 / no-strict-cbr / qg-size=32 / no-rc-grain / qpmax=69 / qpmin=0 / no-const-vbv / sar=0 / overscan=0 / videoformat=5 / range=0 / colorprim=2 / transfer=2 / colormatrix=2 / chromaloc=0 / display-window=0 / max-cll=0,0 / min-luma=0 / max-luma=1023 / log2-max-poc-lsb=8 / vui-timing-info / vui-hrd-info / slices=1 / no-opt-qp-pps / no-opt-ref-list-length-pps / no-multi-pass-opt-rps / scenecut-bias=0.05 / no-opt-cu-delta-qp / no-aq-motion / no-hdr / no-hdr-opt / no-dhdr10-opt / no-idr-recovery-sei / analysis-reuse-level=5 / scale-factor=0 / refine-intra=0 / refine-inter=0 / refine-mv=0 / no-limit-sao / ctu-info=0 / no-lowpass-dct / refine-mv-type=0 / copy-pic=1 / max-ausize-factor=1.0 / no-dynamic-refine / no-single-sei
Default : Yes
Forced : No

Audio
ID : 2
Format : AC-3
Format/Info : Audio Coding 3
Mode extension : CM (complete main)
Format settings, Endianness : Big
Codec ID : A_AC3
Duration : 1 h 2 min
Bit rate mode : Constant
Bit rate : 384 kb/s
Channel(s) : 6 channels
Channel positions : Front: L C R, Side: L R, LFE
Sampling rate : 48.0 kHz
Frame rate : 31.250 FPS (1536 spf)
Bit depth : 16 bits
Compression mode : Lossy
Stream size : 172 MiB (15%)
Language : Italian
Default : Yes
Forced : No

Subtitle #1
ID : 3
Format : UTF-8
Codec ID : S_TEXT/UTF8
Codec ID/Info : UTF-8 Plain Text
Duration : 58 min 38 s
Bit rate : 46 b/s
Count of elements : 602
Stream size : 19.9 KiB (0%)
Language : English
Default : Yes
Forced : No

Subtitle #2
ID : 4
Format : UTF-8
Codec ID : S_TEXT/UTF8
Codec ID/Info : UTF-8 Plain Text
Duration : 58 min 40 s
Bit rate : 53 b/s
Count of elements : 604
Stream size : 23.1 KiB (0%)
Language : French
Default : No
Forced : No

Subtitle #3
ID : 5
Format : UTF-8
Codec ID : S_TEXT/UTF8
Codec ID/Info : UTF-8 Plain Text
Duration : 58 min 38 s
Bit rate : 51 b/s
Count of elements : 624
Stream size : 22.3 KiB (0%)
Language : German
Default : No
Forced : No

Subtitle #4
ID : 6
Format : UTF-8
Codec ID : S_TEXT/UTF8
Codec ID/Info : UTF-8 Plain Text
Duration : 58 min 38 s
Bit rate : 57 b/s
Count of elements : 727
Stream size : 24.9 KiB (0%)
Language : Italian
Default : No
Forced : No

Subtitle #5
ID : 7
Format : UTF-8
Codec ID : S_TEXT/UTF8
Codec ID/Info : UTF-8 Plain Text
Duration : 58 min 40 s
Bit rate : 49 b/s
Count of elements : 603
Stream size : 21.1 KiB (0%)
Language : Spanish
Default : No
Forced : No

Source Information

Code:

Release:
[Italian]Suburra S01 2160p NF WEBRip DD5 1 x264-NTb (131.1 GB)


Note From QxR:

Quote:

Whilst we are happy for our releases to be re-posted on a platform we aren't on, please do so in an 'as-is' format. We ask that you do not create a new torrent, include all descriptions you see above including the QxR logo, tags, notes and screenshots. If you'd like to become a permanent poster on a website we don't post to, feel free to get in contact with a QxR member.


Files:

Suburra (2017) Season 1 S01 (1080p NF WEBRip x265 HEVC 10bit AC3 5.1 Italian r00t)
  • Suburra (2017) - S01E01 - 21 Days (1080p NF WEBRip x265 r00t).mkv (1.1 GB)
  • Suburra (2017) - S01E02 - Plebes and Patricians (1080p NF WEBRip x265 r00t).mkv (905.3 MB)
  • Suburra (2017) - S01E03 - Rabid Dogs (1080p NF WEBRip x265 r00t).mkv (691.2 MB)
  • Suburra (2017) - S01E04 - Enjoy Your Meal (1080p NF WEBRip x265 r00t).mkv (820.4 MB)
  • Suburra (2017) - S01E05 - She Wolf (1080p NF WEBRip x265 r00t).mkv (1.1 GB)
  • Suburra (2017) - S01E06 - Garlic, Oil, and Chili Pepper (1080p NF WEBRip x265 r00t).mkv (690.6 MB)
  • Suburra (2017) - S01E07 - Last Customer (1080p NF WEBRip x265 r00t).mkv (863.1 MB)
  • Suburra (2017) - S01E08 - A New Man (1080p NF WEBRip x265 r00t).mkv (884.0 MB)
  • Suburra (2017) - S01E09 - Pitch Black (1080p NF WEBRip x265 r00t).mkv (715.9 MB)
  • Suburra (2017) - S01E10 - Call It Sleep (1080p NF WEBRip x265 r00t).mkv (863.8 MB)

There are currently no comments. Feel free to leave one :)

Code:

  • udp://tracker.coppersurfer.tk:6969/announce
  • udp://tracker.opentrackr.org:1337/announce
  • udp://tracker.zer0day.to:1337/announce
  • udp://tracker.torrent.eu.org:451/announce
  • udp://tracker.leechers-paradise.org:6969/announce
  • udp://p4p.arenabg.com:1337/announce
  • udp://tracker.internetwarriors.net:1337/announce